  0
SECTION
  2
HEADER
  9
$ACADVER
  1
AC1012
  9
$DWGCODEPAGE
  3
ansi_1250
  9
$INSBASE
 10
0.0
 20
0.0
 30
0.0
  9
$EXTMIN
 10
0.0
 20
0.0
 30
0.0
  9
$EXTMAX
 10
210.0
 20
297.0
 30
0.0
  9
$LIMMIN
 10
0.0
 20
0.0
  9
$LIMMAX
 10
210.0
 20
297.0
  9
$ORTHOMODE
 70
     0
  9
$REGENMODE
 70
     1
  9
$FILLMODE
 70
     1
  9
$QTEXTMODE
 70
     0
  9
$MIRRTEXT
 70
     1
  9
$DRAGMODE
 70
     2
  9
$LTSCALE
 40
1.0
  9
$OSMODE
 70
    37
  9
$ATTMODE
 70
     1
  9
$TEXTSIZE
 40
2.5
  9
$TRACEWID
 40
1.0
  9
$TEXTSTYLE
  7
STANDARD
  9
$CLAYER
  8
0
  9
$CELTYPE
  6
BYLAYER
  9
$CECOLOR
 62
   256
  9
$CELTSCALE
 40
1.0
  9
$DELOBJ
 70
     1
  9
$DISPSILH
 70
     0
  9
$DIMSCALE
 40
1.0
  9
$DIMASZ
 40
2.5
  9
$DIMEXO
 40
0.0
  9
$DIMDLI
 40
3.75
  9
$DIMRND
 40
0.0
  9
$DIMDLE
 40
0.0
  9
$DIMEXE
 40
1.0
  9
$DIMTP
 40
0.0
  9
$DIMTM
 40
0.0
  9
$DIMTXT
 40
2.5
  9
$DIMCEN
 40
2.5
  9
$DIMTSZ
 40
0.0
  9
$DIMTOL
 70
     0
  9
$DIMLIM
 70
     0
  9
$DIMTIH
 70
     1
  9
$DIMTOH
 70
     1
  9
$DIMSE1
 70
     0
  9
$DIMSE2
 70
     0
  9
$DIMTAD
 70
     1
  9
$DIMZIN
 70
     1
  9
$DIMBLK
  1

  9
$DIMASO
 70
     1
  9
$DIMSHO
 70
     1
  9
$DIMPOST
  1

  9
$DIMAPOST
  1

  9
$DIMALT
 70
     0
  9
$DIMALTD
 70
     3
  9
$DIMALTF
 40
0.0393700787
  9
$DIMLFAC
 40
10.0
  9
$DIMTOFL
 70
     1
  9
$DIMTVP
 40
0.0
  9
$DIMTIX
 70
     0
  9
$DIMSOXD
 70
     0
  9
$DIMSAH
 70
     0
  9
$DIMBLK1
  1

  9
$DIMBLK2
  1

  9
$DIMSTYLE
  2
ISO-25
  9
$DIMCLRD
 70
     0
  9
$DIMCLRE
 70
     0
  9
$DIMCLRT
 70
     0
  9
$DIMTFAC
 40
1.0
  9
$DIMGAP
 40
1.524
  9
$DIMJUST
 70
     0
  9
$DIMSD1
 70
     0
  9
$DIMSD2
 70
     0
  9
$DIMTOLJ
 70
     0
  9
$DIMTZIN
 70
     1
  9
$DIMALTZ
 70
     0
  9
$DIMALTTZ
 70
     0
  9
$DIMFIT
 70
     3
  9
$DIMUPT
 70
     0
  9
$DIMUNIT
 70
     2
  9
$DIMDEC
 70
     2
  9
$DIMTDEC
 70
     2
  9
$DIMALTU
 70
     2
  9
$DIMALTTD
 70
     3
  9
$DIMTXSTY
  7
STANDARD
  9
$DIMAUNIT
 70
     0
  9
$LUNITS
 70
     2
  9
$LUPREC
 70
     0
  9
$SKETCHINC
 40
1.0
  9
$FILLETRAD
 40
10.0
  9
$AUNITS
 70
     0
  9
$AUPREC
 70
     2
  9
$MENU
  1
.
  9
$ELEVATION
 40
0.0
  9
$PELEVATION
 40
0.0
  9
$THICKNESS
 40
0.0
  9
$LIMCHECK
 70
     0
  9
$CHAMFERA
 40
10.0
  9
$CHAMFERB
 40
10.0
  9
$CHAMFERC
 40
20.0
  9
$CHAMFERD
 40
0.0
  9
$SKPOLY
 70
     0
  9
$TDCREATE
 40
2455618.546089884
  9
$TDUPDATE
 40
2455618.546089896
  9
$TDINDWG
 40
0.0000000116
  9
$TDUSRTIMER
 40
0.0000000116
  9
$USRTIMER
 70
     1
  9
$ANGBASE
 50
0.0
  9
$ANGDIR
 70
     0
  9
$PDMODE
 70
     0
  9
$PDSIZE
 40
-1.0
  9
$PLINEWID
 40
0.0
  9
$COORDS
 70
     1
  9
$SPLFRAME
 70
     0
  9
$SPLINETYPE
 70
     6
  9
$SPLINESEGS
 70
     8
  9
$ATTDIA
 70
     0
  9
$ATTREQ
 70
     1
  9
$HANDLING
 70
     1
  9
$HANDSEED
  5
113
  9
$SURFTAB1
 70
     6
  9
$SURFTAB2
 70
     6
  9
$SURFTYPE
 70
     6
  9
$SURFU
 70
     6
  9
$SURFV
 70
     6
  9
$UCSNAME
  2

  9
$UCSORG
 10
0.0
 20
0.0
 30
0.0
  9
$UCSXDIR
 10
1.0
 20
0.0
 30
0.0
  9
$UCSYDIR
 10
0.0
 20
1.0
 30
0.0
  9
$PUCSNAME
  2

  9
$PUCSORG
 10
0.0
 20
0.0
 30
0.0
  9
$PUCSXDIR
 10
1.0
 20
0.0
 30
0.0
  9
$PUCSYDIR
 10
0.0
 20
1.0
 30
0.0
  9
$USERI1
 70
     0
  9
$USERI2
 70
     0
  9
$USERI3
 70
     0
  9
$USERI4
 70
     0
  9
$USERI5
 70
     0
  9
$USERR1
 40
0.0
  9
$USERR2
 40
0.0
  9
$USERR3
 40
0.0
  9
$USERR4
 40
0.0
  9
$USERR5
 40
0.0
  9
$WORLDVIEW
 70
     1
  9
$SHADEDGE
 70
     3
  9
$SHADEDIF
 70
    70
  9
$TILEMODE
 70
     1
  9
$MAXACTVP
 70
    64
  9
$PINSBASE
 10
0.0
 20
0.0
 30
0.0
  9
$PLIMCHECK
 70
     0
  9
$PEXTMIN
 10
1.0000000000E+20
 20
1.0000000000E+20
 30
1.0000000000E+20
  9
$PEXTMAX
 10
-1.0000000000E+20
 20
-1.0000000000E+20
 30
-1.0000000000E+20
  9
$PLIMMIN
 10
0.0
 20
0.0
  9
$PLIMMAX
 10
420.0
 20
297.0
  9
$UNITMODE
 70
     0
  9
$VISRETAIN
 70
     1
  9
$PLINEGEN
 70
     0
  9
$PSLTSCALE
 70
     1
  9
$TREEDEPTH
 70
  3020
  9
$PICKSTYLE
 70
     1
  9
$CMLSTYLE
  2
STANDARD
  9
$CMLJUST
 70
     0
  9
$CMLSCALE
 40
20.0
  9
$SAVEIMAGES
 70
     1
  0
ENDSEC
  0
SECTION
  2
CLASSES
  0
CLASS
  1
ACDBDICTIONARYWDFLT
  2
AcDbDictionaryWithDefault
  3
ObjectDBX Classes
 90
    32768
280
     0
281
     0
  0
CLASS
  1
VISUALSTYLE
  2
AcDbVisualStyle
  3
ObjectDBX Classes
 90
     4095
280
     0
281
     0
  0
CLASS
  1
MATERIAL
  2
AcDbMaterial
  3
ObjectDBX Classes
 90
     1153
280
     0
281
     0
  0
CLASS
  1
XRECORD
  2
AcDbXrecord
  3
AutoCAD 2000
 90
    32768
280
     0
281
     0
  0
ENDSEC
  0
SECTION
  2
TABLES
  0
TABLE
  2
VPORT
  5
8
330
0
100
AcDbSymbolTable
 70
     1
  0
VPORT
  5
29
330
8
100
AcDbSymbolTableRecord
100
AcDbViewportTableRecord
  2
*ACTIVE
 70
     0
 10
0.0
 20
0.0
 11
1.0
 21
1.0
 12
105.0
 22
148.5
 13
0.0
 23
0.0
 14
10.0
 24
10.0
 15
10.0
 25
10.0
 16
0.0
 26
0.0
 36
1.0
 17
0.0
 27
0.0
 37
0.0
 40
297.0
 41
0.7070707071
 42
50.0
 43
0.0
 44
0.0
 50
0.0
 51
0.0
 71
     0
 72
  2000
 73
     1
 74
     3
 75
     0
 76
     0
 77
     0
 78
     0
  0
ENDTAB
  0
TABLE
  2
LTYPE
  5
5
330
0
100
AcDbSymbolTable
 70
    11
  0
LTYPE
  5
14
330
5
100
AcDbSymbolTableRecord
100
AcDbLinetypeTableRecord
  2
BYBLOCK
 70
     0
  3

 72
    65
 73
     0
 40
0.0
  0
LTYPE
  5
15
330
5
100
AcDbSymbolTableRecord
100
AcDbLinetypeTableRecord
  2
BYLAYER
 70
     0
  3

 72
    65
 73
     0
 40
0.0
  0
LTYPE
  5
16
330
5
100
AcDbSymbolTableRecord
100
AcDbLinetypeTableRecord
  2
CONTINUOUS
 70
     0
  3
Solid line
 72
    65
 73
     0
 40
0.0
  0
LTYPE
  5
3F
330
5
100
AcDbSymbolTableRecord
100
AcDbLinetypeTableRecord
  2
SLD-PLNÁ
 70
     0
  3
SolidWorks Line Style
 72
    65
 73
     0
 40
0.0
  0
LTYPE
  5
40
330
5
100
AcDbSymbolTableRecord
100
AcDbLinetypeTableRecord
  2
SLD-ČÁRKOVANÁ
 70
     0
  3
SolidWorks Line Style
 72
    65
 73
     2
 40
1.905
 49
1.27
 74
     0
 49
-0.635
 74
     0
  0
LTYPE
  5
41
330
5
100
AcDbSymbolTableRecord
100
AcDbLinetypeTableRecord
  2
SLD-DVOJITĚ-ČERCHOVANÁ
 70
     0
  3
SolidWorks Line Style
 72
    65
 73
     6
 40
12.7
 49
6.35
 74
     0
 49
-1.27
 74
     0
 49
1.27
 74
     0
 49
-1.27
 74
     0
 49
1.27
 74
     0
 49
-1.27
 74
     0
  0
LTYPE
  5
42
330
5
100
AcDbSymbolTableRecord
100
AcDbLinetypeTableRecord
  2
SLD-ČERCHOVANÁ
 70
     0
  3
SolidWorks Line Style
 72
    65
 73
     4
 40
10.16
 49
6.35
 74
     0
 49
-1.27
 74
     0
 49
1.27
 74
     0
 49
-1.27
 74
     0
  0
LTYPE
  5
43
330
5
100
AcDbSymbolTableRecord
100
AcDbLinetypeTableRecord
  2
SLD-OSA
 70
     0
  3
SolidWorks Line Style
 72
    65
 73
     4
 40
19.05
 49
15.24
 74
     0
 49
-1.27
 74
     0
 49
1.27
 74
     0
 49
-1.27
 74
     0
  0
LTYPE
  5
44
330
5
100
AcDbSymbolTableRecord
100
AcDbLinetypeTableRecord
  2
SLD-TEČKOVANÁ
 70
     0
  3
SolidWorks Line Style
 72
    65
 73
     2
 40
0.635
 49
0.0
 74
     0
 49
-0.635
 74
     0
  0
LTYPE
  5
45
330
5
100
AcDbSymbolTableRecord
100
AcDbLinetypeTableRecord
  2
SLD-HRUBÁ-TENKÁ-ČERCHOVANÁ
 70
     0
  3
SolidWorks Line Style
 72
    65
 73
     4
 40
10.16
 49
6.35
 74
     0
 49
-1.27
 74
     0
 49
1.27
 74
     0
 49
-1.27
 74
     0
  0
LTYPE
  5
46
330
5
100
AcDbSymbolTableRecord
100
AcDbLinetypeTableRecord
  2
SLD-ŘEZ-1
 70
     0
  3
SolidWorks Line Style
 72
    65
 73
     4
 40
8.128
 49
5.08
 74
     0
 49
-1.016
 74
     0
 49
1.016
 74
     0
 49
-1.016
 74
     0
  0
LTYPE
  5
47
330
5
100
AcDbSymbolTableRecord
100
AcDbLinetypeTableRecord
  2
SLD-ŘEZ-2
 70
     0
  3
SolidWorks Line Style
 72
    65
 73
     2
 40
5080.0
 49
0.0
 74
     0
 49
-5080.0
 74
     0
  0
LTYPE
  5
48
330
5
100
AcDbSymbolTableRecord
100
AcDbLinetypeTableRecord
  2
SLD-ŘEZ3
 70
     0
  3
SolidWorks Line Style
 72
    65
 73
     4
 40
9.144
 49
4.572
 74
     0
 49
-1.524
 74
     0
 49
1.524
 74
     0
 49
-1.524
 74
     0
  0
ENDTAB
  0
TABLE
  2
LAYER
  5
2
330
0
100
AcDbSymbolTable
 70
     2
  0
LAYER
  5
10
330
2
100
AcDbSymbolTableRecord
100
AcDbLayerTableRecord
  2
0
 70
     0
 62
     7
  6
CONTINUOUS
  0
LAYER
  5
49
330
2
100
AcDbSymbolTableRecord
100
AcDbLayerTableRecord
  2
FORMAT
 70
     0
 62
     7
  6
SLD-PLNÁ
  0
ENDTAB
  0
TABLE
  2
STYLE
  5
3
330
0
100
AcDbSymbolTable
 70
     2
  0
STYLE
  5
11
330
3
100
AcDbSymbolTableRecord
100
AcDbTextStyleTableRecord
  2
STANDARD
 70
     0
 40
0.0
 41
1.0
 50
0.0
 71
     0
 42
2.5
  3
txt
  4

  0
STYLE
  5
7B
330
3
100
AcDbSymbolTableRecord
100
AcDbTextStyleTableRecord
  2
SLDTEXTSTYLE0
 70
     0
 40
0.0
 41
0.75
 50
0.0
 71
     0
 42
0.2
  3
TXT
  4

  0
ENDTAB
  0
TABLE
  2
VIEW
  5
6
330
0
100
AcDbSymbolTable
 70
     0
  0
ENDTAB
  0
TABLE
  2
UCS
  5
7
330
0
100
AcDbSymbolTable
 70
     0
  0
ENDTAB
  0
TABLE
  2
APPID
  5
9
330
0
100
AcDbSymbolTable
 70
     1
  0
APPID
  5
12
330
9
100
AcDbSymbolTableRecord
100
AcDbRegAppTableRecord
  2
ACAD
 70
     0
  0
ENDTAB
  0
TABLE
  2
DIMSTYLE
  5
A
330
0
100
AcDbSymbolTable
 70
     3
  0
DIMSTYLE
105
27
330
A
100
AcDbSymbolTableRecord
100
AcDbDimStyleTableRecord
  2
ISO-25
 70
     0
  3

  4

  5

  6

  7

 40
1.0
 41
2.5
 42
0.625
 43
3.75
 44
1.25
 45
0.0
 46
0.0
 47
0.0
 48
0.0
140
2.5
141
2.5
142
0.0
143
0.0393700787
144
1.0
145
0.0
146
1.0
147
0.625
 71
     0
 72
     0
 73
     0
 74
     0
 75
     0
 76
     0
 77
     1
 78
     8
170
     0
171
     3
172
     1
173
     0
174
     0
175
     0
176
     0
177
     0
178
     0
270
     2
271
     2
272
     2
273
     2
274
     3
340
11
275
     0
280
     0
281
     0
282
     0
283
     0
284
     8
285
     0
286
     0
287
     3
288
     0
  0
DIMSTYLE
105
7C
102
{ACAD_REACTORS
330
7A
330
9A
330
A4
102
}
330
A
100
AcDbSymbolTableRecord
100
AcDbDimStyleTableRecord
  2
SLDDIMSTYLE0
 70
     0
  3

  4

  5

  6

  7

 40
1.0
 41
2.5
 42
0.0625
 43
0.38
 44
0.0
 45
0.000000001
 46
0.0
 47
0.0
 48
0.0
140
5.8208333333
141
0.09
142
0.0
143
25.4
144
1.0
145
0.0
146
1.0
147
1.4552083333
 71
     0
 72
     0
 73
     0
 74
     0
 75
     0
 76
     0
 77
     1
 78
    12
170
     0
171
     2
172
     0
173
     1
174
     0
175
     0
176
     0
177
     0
178
     0
270
     2
271
     0
272
     2
273
     2
274
     2
340
7B
275
     0
280
     0
281
     0
282
     0
283
     1
284
    12
285
     0
286
     0
287
     3
288
     0
  0
DIMSTYLE
105
AE
102
{ACAD_REACTORS
330
AD
102
}
330
A
100
AcDbSymbolTableRecord
100
AcDbDimStyleTableRecord
  2
SLDDIMSTYLE1
 70
     0
  3

  4

  5

  6

  7

 40
1.0
 41
2.5
 42
0.0625
 43
0.38
 44
0.0
 45
0.000000001
 46
0.0
 47
0.0
 48
0.0
140
5.8208333333
141
0.09
142
0.0
143
25.4
144
1.0
145
0.0
146
1.0
147
1.4552083333
 71
     0
 72
     0
 73
     0
 74
     0
 75
     0
 76
     0
 77
     1
 78
    12
170
     0
171
     2
172
     1
173
     1
174
     0
175
     0
176
     0
177
     0
178
     0
270
     2
271
     0
272
     2
273
     2
274
     2
340
7B
275
     0
280
     0
281
     0
282
     0
283
     1
284
    12
285
     0
286
     0
288
     0
  0
ENDTAB
  0
TABLE
  2
BLOCK_RECORD
  5
1
330
0
100
AcDbSymbolTable
 70
     5
  0
BLOCK_RECORD
  5
1F
330
1
100
AcDbSymbolTableRecord
100
AcDbBlockTableRecord
  2
*MODEL_SPACE
  0
BLOCK_RECORD
  5
1B
330
1
100
AcDbSymbolTableRecord
100
AcDbBlockTableRecord
  2
*PAPER_SPACE
  0
BLOCK_RECORD
  5
23
330
1
100
AcDbSymbolTableRecord
100
AcDbBlockTableRecord
  2
*PAPER_SPACE0
  0
BLOCK_RECORD
  5
7D
330
1
100
AcDbSymbolTableRecord
100
AcDbBlockTableRecord
  2
*D1
  0
BLOCK_RECORD
  5
9B
330
1
100
AcDbSymbolTableRecord
100
AcDbBlockTableRecord
  2
*D2
  0
BLOCK_RECORD
  5
A5
330
1
100
AcDbSymbolTableRecord
100
AcDbBlockTableRecord
  2
*D3
  0
BLOCK_RECORD
  5
AF
330
1
100
AcDbSymbolTableRecord
100
AcDbBlockTableRecord
  2
*D4
  0
ENDTAB
  0
ENDSEC
  0
SECTION
  2
BLOCKS
  0
BLOCK
  5
20
330
1F
100
AcDbEntity
  8
0
100
AcDbBlockBegin
  2
*MODEL_SPACE
 70
     0
 10
0.0
 20
0.0
 30
0.0
  3
*MODEL_SPACE
  1

  0
ENDBLK
  5
21
330
1F
100
AcDbEntity
  8
0
100
AcDbBlockEnd
  0
BLOCK
  5
1C
330
1B
100
AcDbEntity
 67
     1
  8
0
100
AcDbBlockBegin
  2
*PAPER_SPACE
 70
     0
 10
0.0
 20
0.0
 30
0.0
  3
*PAPER_SPACE
  1

  0
ENDBLK
  5
1D
330
1B
100
AcDbEntity
 67
     1
  8
0
100
AcDbBlockEnd
  0
BLOCK
  5
24
330
23
100
AcDbEntity
  8
0
100
AcDbBlockBegin
  2
*PAPER_SPACE0
 70
     0
 10
0.0
 20
0.0
 30
0.0
  3
*PAPER_SPACE0
  1

  0
ENDBLK
  5
25
330
23
100
AcDbEntity
  8
0
100
AcDbBlockEnd
  0
BLOCK
  5
7E
330
7D
100
AcDbEntity
  8
0
100
AcDbBlockBegin
  2
*D1
 70
     1
 10
0.0
 20
0.0
 30
0.0
  3
*D1
  1

  0
SOLID
  5
80
330
7D
100
AcDbEntity
  8
0
  6
SLD-PLNÁ
 62
     9
100
AcDbTrace
 10
114.2889335919
 20
155.614994231
 30
0.0
 11
115.0520960225
 21
155.096073373
 31
0.0
 12
113.858335829
 22
156.4312548015
 32
0.0
 13
113.858335829
 23
156.4312548015
 33
0.0
  0
SOLID
  5
81
330
7D
100
AcDbEntity
  8
0
  6
SLD-PLNÁ
 62
     9
100
AcDbTrace
 10
142.8556910166
 20
181.1559859966
 30
0.0
 11
142.092528586
 21
181.6749068546
 31
0.0
 12
143.2862887796
 22
180.3397254261
 32
0.0
 13
143.2862887796
 23
180.3397254261
 33
0.0
  0
LINE
  5
82
330
7D
100
AcDbEntity
  8
0
  6
SLD-PLNÁ
 62
     9
100
AcDbLine
 10
114.2889335919
 20
155.614994231
 30
0.0
 11
142.8556910166
 21
181.1559859966
 31
0.0
  0
MTEXT
  5
83
330
7D
100
AcDbEntity
  8
0
  6
SLD-PLNÁ
 62
     9
100
AcDbMText
 10
120.4821906684
 20
171.2174678347
 30
-28.5553267698
 40
5.8208333333
 41
0.0
 71
     1
 72
     1
  1
d
  7
SLDTEXTSTYLE0
 11
0.7454842621811332
 21
0.6665232290327558
 31
0.0
  0
ENDBLK
  5
7F
330
7D
100
AcDbEntity
  8
0
100
AcDbBlockEnd
  0
BLOCK
  5
9C
330
9B
100
AcDbEntity
  8
0
100
AcDbBlockBegin
  2
*D2
 70
     1
 10
0.0
 20
0.0
 30
0.0
  3
*D2
  1

  0
SOLID
  5
9E
330
9B
100
AcDbEntity
  8
0
  6
SLD-PLNÁ
 62
     9
100
AcDbTrace
 10
14.1935721812
 20
269.5312223393
 30
0.0
 11
13.2980593607
 21
263.710389006
 31
0.0
 12
15.0890850018
 22
263.710389006
 32
0.0
 13
15.0890850018
 23
263.710389006
 33
0.0
  0
SOLID
  5
9F
330
9B
100
AcDbEntity
  8
0
  6
SLD-PLNÁ
 62
     9
100
AcDbTrace
 10
14.1935721812
 20
116.5312223393
 30
0.0
 11
15.0890850018
 21
122.3520556726
 31
0.0
 12
13.2980593607
 22
122.3520556726
 32
0.0
 13
13.2980593607
 23
122.3520556726
 33
0.0
  0
LINE
  5
A0
330
9B
100
AcDbEntity
  8
0
  6
SLD-PLNÁ
 62
     9
100
AcDbLine
 10
53.1935721812
 20
269.5312223393
 30
0.0
 11
13.1935721812
 21
269.5312223393
 31
0.0
  0
LINE
  5
A1
330
9B
100
AcDbEntity
  8
0
  6
SLD-PLNÁ
 62
     9
100
AcDbLine
 10
53.1935721812
 20
116.5312223393
 30
0.0
 11
13.1935721812
 21
116.5312223393
 31
0.0
  0
LINE
  5
A2
330
9B
100
AcDbEntity
  8
0
  6
SLD-PLNÁ
 62
     9
100
AcDbLine
 10
14.1935721812
 20
269.5312223393
 30
0.0
 11
14.1935721812
 21
116.5312223393
 31
0.0
  0
MTEXT
  5
A3
330
9B
100
AcDbEntity
  8
0
  6
SLD-PLNÁ
 62
     9
100
AcDbMText
 10
6.6901233634
 20
183.8100242609
 30
0.1
 40
5.8208333333
 41
0.0
 71
     1
 72
     1
  1
a
  7
SLDTEXTSTYLE0
 11
-7.044195017643634E-15
 21
1.0
 31
0.0
  0
ENDBLK
  5
9D
330
9B
100
AcDbEntity
  8
0
100
AcDbBlockEnd
  0
BLOCK
  5
A6
330
A5
100
AcDbEntity
  8
0
100
AcDbBlockBegin
  2
*D3
 70
     1
 10
0.0
 20
0.0
 30
0.0
  3
*D3
  1

  0
SOLID
  5
A8
330
A5
100
AcDbEntity
  8
0
  6
SLD-PLNÁ
 62
     9
100
AcDbTrace
 10
103.1935721812
 20
249.3698213818
 30
0.0
 11
97.3727388479
 21
250.2653342023
 31
0.0
 12
97.3727388479
 22
248.4743085613
 32
0.0
 13
97.3727388479
 23
248.4743085613
 33
0.0
  0
SOLID
  5
A9
330
A5
100
AcDbEntity
  8
0
  6
SLD-PLNÁ
 62
     9
100
AcDbTrace
 10
50.1935721812
 20
249.3698213818
 30
0.0
 11
56.0144055146
 21
248.4743085613
 31
0.0
 12
56.0144055146
 22
250.2653342023
 32
0.0
 13
56.0144055146
 23
250.2653342023
 33
0.0
  0
LINE
  5
AA
330
A5
100
AcDbEntity
  8
0
  6
SLD-PLNÁ
 62
     9
100
AcDbLine
 10
103.1935721812
 20
268.0312223393
 30
0.0
 11
103.1935721812
 21
248.3698213818
 31
0.0
  0
LINE
  5
AB
330
A5
100
AcDbEntity
  8
0
  6
SLD-PLNÁ
 62
     9
100
AcDbLine
 10
103.1935721812
 20
249.3698213818
 30
0.0
 11
50.1935721812
 21
249.3698213818
 31
0.0
  0
MTEXT
  5
AC
330
A5
100
AcDbEntity
  8
0
  6
SLD-PLNÁ
 62
     9
100
AcDbMText
 10
72.7342985612
 20
256.8732701996
 30
0.1
 40
5.8208333333
 41
0.0
 71
     1
 72
     1
  1
b
  7
SLDTEXTSTYLE0
  0
ENDBLK
  5
A7
330
A5
100
AcDbEntity
  8
0
100
AcDbBlockEnd
  0
BLOCK
  5
B0
330
AF
100
AcDbEntity
  8
0
100
AcDbBlockBegin
  2
*D4
 70
     1
 10
0.0
 20
0.0
 30
0.0
  3
*D4
  1

  0
SOLID
  5
B2
330
AF
100
AcDbEntity
  8
0
  6
SLD-PLNÁ
 62
     9
100
AcDbTrace
 10
30.1935721812
 20
146.2980862823
 30
0.0
 11
24.3727388479
 21
147.1935991028
 31
0.0
 12
24.3727388479
 22
145.4025734618
 32
0.0
 13
24.3727388479
 23
145.4025734618
 33
0.0
  0
SOLID
  5
B3
330
AF
100
AcDbEntity
  8
0
  6
SLD-PLNÁ
 62
     9
100
AcDbTrace
 10
50.1935721812
 20
146.2980862823
 30
0.0
 11
56.0144055146
 21
145.4025734618
 31
0.0
 12
56.0144055146
 22
147.1935991028
 32
0.0
 13
56.0144055146
 23
147.1935991028
 33
0.0
  0
LINE
  5
B4
330
AF
100
AcDbEntity
  8
0
  6
SLD-PLNÁ
 62
     9
100
AcDbLine
 10
30.1935721812
 20
118.0312223393
 30
0.0
 11
30.1935721812
 21
147.2980862823
 31
0.0
  0
LINE
  5
B5
330
AF
100
AcDbEntity
  8
0
  6
SLD-PLNÁ
 62
     9
100
AcDbLine
 10
30.1935721812
 20
146.2980862823
 30
0.0
 11
18.9996619248
 21
146.2980862823
 31
0.0
  0
LINE
  5
B6
330
AF
100
AcDbEntity
  8
0
  6
SLD-PLNÁ
 62
     9
100
AcDbLine
 10
30.1935721812
 20
146.2980862823
 30
0.0
 11
50.1935721812
 21
146.2980862823
 31
0.0
  0
LINE
  5
B7
330
AF
100
AcDbEntity
  8
0
  6
SLD-PLNÁ
 62
     9
100
AcDbLine
 10
50.1935721812
 20
146.2980862823
 30
0.0
 11
61.3874824377
 21
146.2980862823
 31
0.0
  0
MTEXT
  5
B8
330
AF
100
AcDbEntity
  8
0
  6
SLD-PLNÁ
 62
     9
100
AcDbMText
 10
33.0241298182
 20
153.8015351001
 30
0.1
 40
5.8208333333
 41
0.0
 71
     1
 72
     1
  1
20
  7
SLDTEXTSTYLE0
  0
ENDBLK
  5
B1
330
AF
100
AcDbEntity
  8
0
100
AcDbBlockEnd
  0
ENDSEC
  0
SECTION
  2
ENTITIES
  0
LINE
  5
4A
330
1F
100
AcDbEntity
  8
0
  6
SLD-PLNÁ
 62
     7
100
AcDbLine
 10
141.5557479767
 20
278.5501927286
 30
0.0
 11
112.988990552
 21
253.0092009631
 31
0.0
  0
LINE
  5
4B
330
1F
100
AcDbEntity
  8
0
  6
SLD-PLNÁ
 62
     7
100
AcDbLine
 10
118.0688567429
 20
101.5874765443
 30
0.0
 11
146.6356141676
 21
127.1284683098
 31
0.0
  0
LINE
  5
4C
330
1F
100
AcDbEntity
  8
0
  6
SLD-PLNÁ
 62
     7
100
AcDbLine
 10
111.9012707669
 20
101.6715136272
 30
0.0
 11
113.2303868756
 21
102.8598509342
 31
0.0
  0
LINE
  5
4D
330
1F
100
AcDbEntity
  8
0
  6
SLD-PLNÁ
 62
     7
100
AcDbLine
 10
164.9447484625
 20
254.1028402665
 30
0.0
 11
193.5115058872
 21
279.643832032
 31
0.0
  0
LINE
  5
4E
330
1F
100
AcDbEntity
  8
0
  6
SLD-PLNÁ
 62
     7
100
AcDbLine
 10
164.9447484625
 20
254.1028402665
 30
0.0
 11
114.9665044989
 21
253.7717111505
 31
0.0
  0
LINE
  5
4F
330
1F
100
AcDbEntity
  8
0
  6
SLD-PLNÁ
 62
     7
100
AcDbLine
 10
193.5115058872
 20
279.643832032
 30
0.0
 11
143.5332619236
 21
279.312702916
 31
0.0
  0
LINE
  5
50
330
1F
100
AcDbEntity
  8
0
  6
SLD-PLNÁ
 62
     7
100
AcDbLine
 10
164.9557763645
 20
252.6033520213
 30
0.0
 11
193.5225337892
 21
278.1443437868
 31
0.0
  0
LINE
  5
51
330
1F
100
AcDbEntity
  8
0
  6
SLD-PLNÁ
 62
     7
100
AcDbLine
 10
164.9447484625
 20
254.1028402665
 30
0.0
 11
164.9557763645
 21
252.6033520213
 31
0.0
  0
LINE
  5
52
330
1F
100
AcDbEntity
  8
0
  6
SLD-PLNÁ
 62
     7
100
AcDbLine
 10
193.5115058872
 20
279.643832032
 30
0.0
 11
193.5225337892
 21
278.1443437868
 31
0.0
  0
ARC
  5
53
330
1F
100
AcDbEntity
  8
0
  6
SLD-PLNÁ
 62
     7
100
AcDbCircle
 10
116.0692893734
 20
103.8235936834
 30
0.0
 40
2.998760295536127
100
AcDbArc
 50
180.3731921235
 51
0.3860191538
  0
LINE
  5
54
330
1F
100
AcDbEntity
  8
0
  6
SLD-PLNÁ
 62
     7
100
AcDbLine
 10
111.9898658488
 20
250.752881811
 30
0.0
 11
113.0705926885
 21
103.8040616024
 31
0.0
  0
ARC
  5
55
330
1F
100
AcDbEntity
  8
0
  6
SLD-PLNÁ
 62
     7
100
AcDbCircle
 10
114.9861304595
 20
250.7754260039
 30
0.0
 40
2.996349421893198
100
AcDbArc
 50
90.3752875904
 51
180.4310910074
  0
LINE
  5
56
330
1F
100
AcDbEntity
  8
0
  6
SLD-PLNÁ
 62
     7
100
AcDbLine
 10
164.9557763645
 20
252.6033520213
 30
0.0
 11
114.9775324009
 21
252.2722229053
 31
0.0
  0
ARC
  5
57
330
1F
100
AcDbEntity
  8
0
  6
SLD-PLNÁ
 62
     7
100
AcDbCircle
 10
114.9873261388
 20
250.7740991913
 30
0.0
 40
1.498155726142748
100
AcDbArc
 50
90.3745564204
 51
180.4315329286
  0
LINE
  5
58
330
1F
100
AcDbEntity
  8
0
  6
SLD-PLNÁ
 62
     7
100
AcDbLine
 10
113.4892129047
 20
250.7628156828
 30
0.0
 11
114.5699397444
 21
103.8139954741
 31
0.0
  0
ARC
  5
59
330
1F
100
AcDbEntity
  8
0
  6
SLD-PLNÁ
 62
     7
100
AcDbCircle
 10
116.0692877693
 20
103.8238182313
 30
0.0
 40
1.49938020067562
100
AcDbArc
 50
180.3753594681
 51
0.3838518092
  0
LINE
  5
5A
330
1F
100
AcDbEntity
  8
0
  6
SLD-PLNÁ
 62
     7
100
AcDbLine
 10
117.5686343218
 20
103.8338632207
 30
0.0
 11
117.4436522994
 21
120.8279454066
 31
0.0
  0
LINE
  5
5B
330
1F
100
AcDbEntity
  8
0
  6
SLD-PLNÁ
 62
     7
100
AcDbLine
 10
117.4436522994
 20
120.8279454066
 30
0.0
 11
118.942999588
 21
120.8378792799
 31
0.0
  0
LINE
  5
5C
330
1F
100
AcDbEntity
  8
0
  6
SLD-PLNÁ
 62
     7
100
AcDbLine
 10
119.0679816104
 20
103.843797094
 30
0.0
 11
118.942999588
 21
120.8378792799
 31
0.0
  0
ARC
  5
5D
330
1F
100
AcDbEntity
  8
0
  6
SLD-PLNÁ
 62
     7
100
AcDbCircle
 10
143.5529016773
 20
276.3162452653
 30
0.0
 40
2.996522012723438
100
AcDbArc
 50
90.3755297158
 51
131.7967806445
  0
LINE
  5
5E
330
1F
100
AcDbEntity
  8
0
  6
SLD-PLNÁ
 62
     7
100
AcDbLine
 10
142.2313812254
 20
252.4527997115
 30
0.0
 11
143.0311590011
 21
143.705245521
 31
0.0
  0
POLYLINE
  5
5F
330
1F
100
AcDbEntity
  8
0
  6
SLD-PLNÁ
 62
     7
100
AcDb2dPolyline
 66
     1
 10
0.0
 20
0.0
 30
0.0
  0
VERTEX
  5
B9
330
5F
100
AcDbEntity
  8
0
  6
SLD-PLNÁ
 62
     7
100
AcDbVertex
100
AcDb2dVertex
 10
141.9231662236
 20
204.2399777427
 30
0.0
  0
VERTEX
  5
BA
330
5F
100
AcDbEntity
  8
0
  6
SLD-PLNÁ
 62
     7
100
AcDbVertex
100
AcDb2dVertex
 10
141.9134397056
 20
204.9821620276
 30
0.0
  0
VERTEX
  5
BB
330
5F
100
AcDbEntity
  8
0
  6
SLD-PLNÁ
 62
     7
100
AcDbVertex
100
AcDb2dVertex
 10
141.8967133291
 20
205.6037742178
 30
0.0
  0
VERTEX
  5
BC
330
5F
100
AcDbEntity
  8
0
  6
SLD-PLNÁ
 62
     7
100
AcDbVertex
100
AcDb2dVertex
 10
141.8755336319
 20
206.0101704175
 30
0.0
  0
VERTEX
  5
BD
330
5F
100
AcDbEntity
  8
0
  6
SLD-PLNÁ
 62
     7
100
AcDbVertex
100
AcDb2dVertex
 10
141.8531248655
 20
206.1394971136
 30
0.0
  0
VERTEX
  5
BE
330
5F
100
AcDbEntity
  8
0
  6
SLD-PLNÁ
 62
     7
100
AcDbVertex
100
AcDb2dVertex
 10
141.8328987488
 20
205.9720513834
 30
0.0
  0
VERTEX
  5
BF
330
5F
100
AcDbEntity
  8
0
  6
SLD-PLNÁ
 62
     7
100
AcDbVertex
100
AcDb2dVertex
 10
141.8179342987
 20
205.5333393925
 30
0.0
  0
VERTEX
  5
C0
330
5F
100
AcDbEntity
  8
0
  6
SLD-PLNÁ
 62
     7
100
AcDbVertex
100
AcDb2dVertex
 10
141.8105099484
 20
204.8901344992
 30
0.0
  0
VERTEX
  5
C1
330
5F
100
AcDbEntity
  8
0
  6
SLD-PLNÁ
 62
     7
100
AcDbVertex
100
AcDb2dVertex
 10
141.8117558993
 20
204.1403679013
 30
0.0
  0
VERTEX
  5
C2
330
5F
100
AcDbEntity
  8
0
  6
SLD-PLNÁ
 62
     7
100
AcDbVertex
100
AcDb2dVertex
 10
141.8214823625
 20
203.3981910644
 30
0.0
  0
VERTEX
  5
C3
330
5F
100
AcDbEntity
  8
0
  6
SLD-PLNÁ
 62
     7
100
AcDbVertex
100
AcDb2dVertex
 10
141.838208739
 20
202.7765788742
 30
0.0
  0
VERTEX
  5
C4
330
5F
100
AcDbEntity
  8
0
  6
SLD-PLNÁ
 62
     7
100
AcDbVertex
100
AcDb2dVertex
 10
141.8593885442
 20
202.3701752741
 30
0.0
  0
VERTEX
  5
C5
330
5F
100
AcDbEntity
  8
0
  6
SLD-PLNÁ
 62
     7
100
AcDbVertex
100
AcDb2dVertex
 10
141.8817972026
 20
202.2408559784
 30
0.0
  0
VERTEX
  5
C6
330
5F
100
AcDbEntity
  8
0
  6
SLD-PLNÁ
 62
     7
100
AcDbVertex
100
AcDb2dVertex
 10
141.9020234274
 20
202.4082943082
 30
0.0
  0
VERTEX
  5
C7
330
5F
100
AcDbEntity
  8
0
  6
SLD-PLNÁ
 62
     7
100
AcDbVertex
100
AcDb2dVertex
 10
141.9169877694
 20
202.8470136994
 30
0.0
  0
VERTEX
  5
C8
330
5F
100
AcDbEntity
  8
0
  6
SLD-PLNÁ
 62
     7
100
AcDbVertex
100
AcDb2dVertex
 10
141.9244121197
 20
203.4902185928
 30
0.0
  0
VERTEX
  5
C9
330
5F
100
AcDbEntity
  8
0
  6
SLD-PLNÁ
 62
     7
100
AcDbVertex
100
AcDb2dVertex
 10
141.9231662236
 20
204.2399777427
 30
0.0
  0
SEQEND
  5
CA
330
5F
100
AcDbEntity
  8
0
  6
SLD-PLNÁ
 62
     7
  0
POLYLINE
  5
60
330
1F
100
AcDbEntity
  8
0
  6
SLD-PLNÁ
 62
     7
100
AcDb2dPolyline
 66
     1
 10
0.0
 20
0.0
 30
0.0
  0
VERTEX
  5
CB
330
60
100
AcDbEntity
  8
0
  6
SLD-PLNÁ
 62
     7
100
AcDbVertex
100
AcDb2dVertex
 10
142.3091400695
 20
151.7582596976
 30
0.0
  0
VERTEX
  5
CC
330
60
100
AcDbEntity
  8
0
  6
SLD-PLNÁ
 62
     7
100
AcDbVertex
100
AcDb2dVertex
 10
142.2994135652
 20
152.5004421205
 30
0.0
  0
VERTEX
  5
CD
330
60
100
AcDbEntity
  8
0
  6
SLD-PLNÁ
 62
     7
100
AcDbVertex
100
AcDb2dVertex
 10
142.2826872161
 20
153.1220505867
 30
0.0
  0
VERTEX
  5
CE
330
60
100
AcDbEntity
  8
0
  6
SLD-PLNÁ
 62
     7
100
AcDbVertex
100
AcDb2dVertex
 10
142.2615074778
 20
153.5284523724
 30
0.0
  0
VERTEX
  5
CF
330
60
100
AcDbEntity
  8
0
  6
SLD-PLNÁ
 62
     7
100
AcDbVertex
100
AcDb2dVertex
 10
142.2390987388
 20
153.6577753445
 30
0.0
  0
VERTEX
  5
D0
330
60
100
AcDbEntity
  8
0
  6
SLD-PLNÁ
 62
     7
100
AcDbVertex
100
AcDb2dVertex
 10
142.2188725947
 20
153.4903333383
 30
0.0
  0
VERTEX
  5
D1
330
60
100
AcDbEntity
  8
0
  6
SLD-PLNÁ
 62
     7
100
AcDbVertex
100
AcDb2dVertex
 10
142.2039081857
 20
153.0516157615
 30
0.0
  0
VERTEX
  5
D2
330
60
100
AcDbEntity
  8
0
  6
SLD-PLNÁ
 62
     7
100
AcDbVertex
100
AcDb2dVertex
 10
142.196483808
 20
152.4084145921
 30
0.0
  0
VERTEX
  5
D3
330
60
100
AcDbEntity
  8
0
  6
SLD-PLNÁ
 62
     7
100
AcDbVertex
100
AcDb2dVertex
 10
142.1977297452
 20
151.6586498562
 30
0.0
  0
VERTEX
  5
D4
330
60
100
AcDbEntity
  8
0
  6
SLD-PLNÁ
 62
     7
100
AcDbVertex
100
AcDb2dVertex
 10
142.2074562495
 20
150.9164674333
 30
0.0
  0
VERTEX
  5
D5
330
60
100
AcDbEntity
  8
0
  6
SLD-PLNÁ
 62
     7
100
AcDbVertex
100
AcDb2dVertex
 10
142.2241825986
 20
150.2948589671
 30
0.0
  0
VERTEX
  5
D6
330
60
100
AcDbEntity
  8
0
  6
SLD-PLNÁ
 62
     7
100
AcDbVertex
100
AcDb2dVertex
 10
142.2453623901
 20
149.888457229
 30
0.0
  0
VERTEX
  5
D7
330
60
100
AcDbEntity
  8
0
  6
SLD-PLNÁ
 62
     7
100
AcDbVertex
100
AcDb2dVertex
 10
142.2677710759
 20
149.7591342093
 30
0.0
  0
VERTEX
  5
D8
330
60
100
AcDbEntity
  8
0
  6
SLD-PLNÁ
 62
     7
100
AcDbVertex
100
AcDb2dVertex
 10
142.2879972733
 20
149.9265762631
 30
0.0
  0
VERTEX
  5
D9
330
60
100
AcDbEntity
  8
0
  6
SLD-PLNÁ
 62
     7
100
AcDbVertex
100
AcDb2dVertex
 10
142.302961629
 20
150.3652937923
 30
0.0
  0
VERTEX
  5
DA
330
60
100
AcDbEntity
  8
0
  6
SLD-PLNÁ
 62
     7
100
AcDbVertex
100
AcDb2dVertex
 10
142.3103860067
 20
151.0084949617
 30
0.0
  0
VERTEX
  5
DB
330
60
100
AcDbEntity
  8
0
  6
SLD-PLNÁ
 62
     7
100
AcDbVertex
100
AcDb2dVertex
 10
142.3091400695
 20
151.7582596976
 30
0.0
  0
SEQEND
  5
DC
330
60
100
AcDbEntity
  8
0
  6
SLD-PLNÁ
 62
     7
  0
POLYLINE
  5
61
330
1F
100
AcDbEntity
  8
0
  6
SLD-PLNÁ
 62
     7
100
AcDb2dPolyline
 66
     1
 10
0.0
 20
0.0
 30
0.0
  0
VERTEX
  5
DD
330
61
100
AcDbEntity
  8
0
  6
SLD-PLNÁ
 62
     7
100
AcDbVertex
100
AcDb2dVertex
 10
113.9702718502
 20
232.0746522
 30
0.0
  0
VERTEX
  5
DE
330
61
100
AcDbEntity
  8
0
  6
SLD-PLNÁ
 62
     7
100
AcDbVertex
100
AcDb2dVertex
 10
113.9605442711
 20
232.8168205423
 30
0.0
  0
VERTEX
  5
DF
330
61
100
AcDbEntity
  8
0
  6
SLD-PLNÁ
 62
     7
100
AcDbVertex
100
AcDb2dVertex
 10
113.9438193313
 20
233.438434017
 30
0.0
  0
VERTEX
  5
E0
330
61
100
AcDbEntity
  8
0
  6
SLD-PLNÁ
 62
     7
100
AcDbVertex
100
AcDb2dVertex
 10
113.9226389924
 20
233.8448446369
 30
0.0
  0
VERTEX
  5
E1
330
61
100
AcDbEntity
  8
0
  6
SLD-PLNÁ
 62
     7
100
AcDbVertex
100
AcDb2dVertex
 10
113.9002298019
 20
233.9741634569
 30
0.0
  0
VERTEX
  5
E2
330
61
100
AcDbEntity
  8
0
  6
SLD-PLNÁ
 62
     7
100
AcDbVertex
100
AcDb2dVertex
 10
113.8800030983
 20
233.8067246989
 30
0.0
  0
VERTEX
  5
E3
330
61
100
AcDbEntity
  8
0
  6
SLD-PLNÁ
 62
     7
100
AcDbVertex
100
AcDb2dVertex
 10
113.8650399816
 20
233.3679989063
 30
0.0
  0
VERTEX
  5
E4
330
61
100
AcDbEntity
  8
0
  6
SLD-PLNÁ
 62
     7
100
AcDbVertex
100
AcDb2dVertex
 10
113.8576153652
 20
232.724793775
 30
0.0
  0
VERTEX
  5
E5
330
61
100
AcDbEntity
  8
0
  6
SLD-PLNÁ
 62
     7
100
AcDbVertex
100
AcDb2dVertex
 10
113.8588617387
 20
231.9750425489
 30
0.0
  0
VERTEX
  5
E6
330
61
100
AcDbEntity
  8
0
  6
SLD-PLNÁ
 62
     7
100
AcDbVertex
100
AcDb2dVertex
 10
113.8685877246
 20
231.2328577882
 30
0.0
  0
VERTEX
  5
E7
330
61
100
AcDbEntity
  8
0
  6
SLD-PLNÁ
 62
     7
100
AcDbVertex
100
AcDb2dVertex
 10
113.8853143671
 20
230.6112458359
 30
0.0
  0
VERTEX
  5
E8
330
61
100
AcDbEntity
  8
0
  6
SLD-PLNÁ
 62
     7
100
AcDbVertex
100
AcDb2dVertex
 10
113.9064928937
 20
230.2048485896
 30
0.0
  0
VERTEX
  5
E9
330
61
100
AcDbEntity
  8
0
  6
SLD-PLNÁ
 62
     7
100
AcDbVertex
100
AcDb2dVertex
 10
113.9289021938
 20
230.0755148737
 30
0.0
  0
VERTEX
  5
EA
330
61
100
AcDbEntity
  8
0
  6
SLD-PLNÁ
 62
     7
100
AcDbVertex
100
AcDb2dVertex
 10
113.9491287879
 20
230.2429685276
 30
0.0
  0
VERTEX
  5
EB
330
61
100
AcDbEntity
  8
0
  6
SLD-PLNÁ
 62
     7
100
AcDbVertex
100
AcDb2dVertex
 10
113.9640937168
 20
230.6816809466
 30
0.0
  0
VERTEX
  5
EC
330
61
100
AcDbEntity
  8
0
  6
SLD-PLNÁ
 62
     7
100
AcDbVertex
100
AcDb2dVertex
 10
113.9715166305
 20
231.3248845555
 30
0.0
  0
VERTEX
  5
ED
330
61
100
AcDbEntity
  8
0
  6
SLD-PLNÁ
 62
     7
100
AcDbVertex
100
AcDb2dVertex
 10
113.9702718502
 20
232.0746522
 30
0.0
  0
SEQEND
  5
EE
330
61
100
AcDbEntity
  8
0
  6
SLD-PLNÁ
 62
     7
  0
POLYLINE
  5
62
330
1F
100
AcDbEntity
  8
0
  6
SLD-PLNÁ
 62
     7
100
AcDb2dPolyline
 66
     1
 10
0.0
 20
0.0
 30
0.0
  0
VERTEX
  5
EF
330
62
100
AcDbEntity
  8
0
  6
SLD-PLNÁ
 62
     7
100
AcDbVertex
100
AcDb2dVertex
 10
114.3562457919
 20
179.5929211209
 30
0.0
  0
VERTEX
  5
F0
330
62
100
AcDbEntity
  8
0
  6
SLD-PLNÁ
 62
     7
100
AcDbVertex
100
AcDb2dVertex
 10
114.3465181033
 20
180.3351043592
 30
0.0
  0
VERTEX
  5
F1
330
62
100
AcDbEntity
  8
0
  6
SLD-PLNÁ
 62
     7
100
AcDbVertex
100
AcDb2dVertex
 10
114.3297931635
 20
180.9567178339
 30
0.0
  0
VERTEX
  5
F2
330
62
100
AcDbEntity
  8
0
  6
SLD-PLNÁ
 62
     7
100
AcDbVertex
100
AcDb2dVertex
 10
114.3086129342
 20
181.3631135578
 30
0.0
  0
VERTEX
  5
F3
330
62
100
AcDbEntity
  8
0
  6
SLD-PLNÁ
 62
     7
100
AcDbVertex
100
AcDb2dVertex
 10
114.2862036889
 20
181.4924398258
 30
0.0
  0
VERTEX
  5
F4
330
62
100
AcDbEntity
  8
0
  6
SLD-PLNÁ
 62
     7
100
AcDbVertex
100
AcDb2dVertex
 10
114.26597704
 20
181.3249936198
 30
0.0
  0
VERTEX
  5
F5
330
62
100
AcDbEntity
  8
0
  6
SLD-PLNÁ
 62
     7
100
AcDbVertex
100
AcDb2dVertex
 10
114.2510138138
 20
180.8862827232
 30
0.0
  0
VERTEX
  5
F6
330
62
100
AcDbEntity
  8
0
  6
SLD-PLNÁ
 62
     7
100
AcDbVertex
100
AcDb2dVertex
 10
114.2435891974
 20
180.2430775919
 30
0.0
  0
VERTEX
  5
F7
330
62
100
AcDbEntity
  8
0
  6
SLD-PLNÁ
 62
     7
100
AcDbVertex
100
AcDb2dVertex
 10
114.2448356804
 20
179.4933114698
 30
0.0
  0
VERTEX
  5
F8
330
62
100
AcDbEntity
  8
0
  6
SLD-PLNÁ
 62
     7
100
AcDbVertex
100
AcDb2dVertex
 10
114.2545616116
 20
178.7511341571
 30
0.0
  0
VERTEX
  5
F9
330
62
100
AcDbEntity
  8
0
  6
SLD-PLNÁ
 62
     7
100
AcDbVertex
100
AcDb2dVertex
 10
114.2712882541
 20
178.1295222048
 30
0.0
  0
VERTEX
  5
FA
330
62
100
AcDbEntity
  8
0
  6
SLD-PLNÁ
 62
     7
100
AcDbVertex
100
AcDb2dVertex
 10
114.2924668354
 20
177.7231175105
 30
0.0
  0
VERTEX
  5
FB
330
62
100
AcDbEntity
  8
0
  6
SLD-PLNÁ
 62
     7
100
AcDbVertex
100
AcDb2dVertex
 10
114.314876026
 20
177.5937986906
 30
0.0
  0
VERTEX
  5
FC
330
62
100
AcDbEntity
  8
0
  6
SLD-PLNÁ
 62
     7
100
AcDbVertex
100
AcDb2dVertex
 10
114.3351027296
 20
177.7612374485
 30
0.0
  0
VERTEX
  5
FD
330
62
100
AcDbEntity
  8
0
  6
SLD-PLNÁ
 62
     7
100
AcDbVertex
100
AcDb2dVertex
 10
114.3500676038
 20
178.1999573155
 30
0.0
  0
VERTEX
  5
FE
330
62
100
AcDbEntity
  8
0
  6
SLD-PLNÁ
 62
     7
100
AcDbVertex
100
AcDb2dVertex
 10
114.3574905174
 20
178.8431609244
 30
0.0
  0
VERTEX
  5
FF
330
62
100
AcDbEntity
  8
0
  6
SLD-PLNÁ
 62
     7
100
AcDbVertex
100
AcDb2dVertex
 10
114.3562457919
 20
179.5929211209
 30
0.0
  0
SEQEND
  5
100
330
62
100
AcDbEntity
  8
0
  6
SLD-PLNÁ
 62
     7
  0
POLYLINE
  5
63
330
1F
100
AcDbEntity
  8
0
  6
SLD-PLNÁ
 62
     7
100
AcDb2dPolyline
 66
     1
 10
0.0
 20
0.0
 30
0.0
  0
VERTEX
  5
101
330
63
100
AcDbEntity
  8
0
  6
SLD-PLNÁ
 62
     7
100
AcDbVertex
100
AcDb2dVertex
 10
114.7422196378
 20
127.1112030758
 30
0.0
  0
VERTEX
  5
102
330
63
100
AcDbEntity
  8
0
  6
SLD-PLNÁ
 62
     7
100
AcDbVertex
100
AcDb2dVertex
 10
114.7324919629
 20
127.8533844521
 30
0.0
  0
VERTEX
  5
103
330
63
100
AcDbEntity
  8
0
  6
SLD-PLNÁ
 62
     7
100
AcDbVertex
100
AcDb2dVertex
 10
114.7157670505
 20
128.4749942028
 30
0.0
  0
VERTEX
  5
104
330
63
100
AcDbEntity
  8
0
  6
SLD-PLNÁ
 62
     7
100
AcDbVertex
100
AcDb2dVertex
 10
114.6945867801
 20
128.8813955127
 30
0.0
  0
VERTEX
  5
105
330
63
100
AcDbEntity
  8
0
  6
SLD-PLNÁ
 62
     7
100
AcDbVertex
100
AcDb2dVertex
 10
114.6721775622
 20
129.0107180567
 30
0.0
  0
VERTEX
  5
106
330
63
100
AcDbEntity
  8
0
  6
SLD-PLNÁ
 62
     7
100
AcDbVertex
100
AcDb2dVertex
 10
114.6519508859
 20
128.8432755747
 30
0.0
  0
VERTEX
  5
107
330
63
100
AcDbEntity
  8
0
  6
SLD-PLNÁ
 62
     7
100
AcDbVertex
100
AcDb2dVertex
 10
114.6369877008
 20
128.4045590921
 30
0.0
  0
VERTEX
  5
108
330
63
100
AcDbEntity
  8
0
  6
SLD-PLNÁ
 62
     7
100
AcDbVertex
100
AcDb2dVertex
 10
114.629563057
 20
127.7613576848
 30
0.0
  0
VERTEX
  5
109
330
63
100
AcDbEntity
  8
0
  6
SLD-PLNÁ
 62
     7
100
AcDbVertex
100
AcDb2dVertex
 10
114.6308095263
 20
127.0115934247
 30
0.0
  0
VERTEX
  5
10A
330
63
100
AcDbEntity
  8
0
  6
SLD-PLNÁ
 62
     7
100
AcDbVertex
100
AcDb2dVertex
 10
114.6405354986
 20
126.2694105261
 30
0.0
  0
VERTEX
  5
10B
330
63
100
AcDbEntity
  8
0
  6
SLD-PLNÁ
 62
     7
100
AcDbVertex
100
AcDb2dVertex
 10
114.6572621137
 20
125.6478022977
 30
0.0
  0
VERTEX
  5
10C
330
63
100
AcDbEntity
  8
0
  6
SLD-PLNÁ
 62
     7
100
AcDbVertex
100
AcDb2dVertex
 10
114.6784406814
 20
125.2413994654
 30
0.0
  0
VERTEX
  5
10D
330
63
100
AcDbEntity
  8
0
  6
SLD-PLNÁ
 62
     7
100
AcDbVertex
100
AcDb2dVertex
 10
114.7008498993
 20
125.1120769215
 30
0.0
  0
VERTEX
  5
10E
330
63
100
AcDbEntity
  8
0
  6
SLD-PLNÁ
 62
     7
100
AcDbVertex
100
AcDb2dVertex
 10
114.7210765755
 20
125.2795194034
 30
0.0
  0
VERTEX
  5
10F
330
63
100
AcDbEntity
  8
0
  6
SLD-PLNÁ
 62
     7
100
AcDbVertex
100
AcDb2dVertex
 10
114.7360414634
 20
125.7182374084
 30
0.0
  0
VERTEX
  5
110
330
63
100
AcDbEntity
  8
0
  6
SLD-PLNÁ
 62
     7
100
AcDbVertex
100
AcDb2dVertex
 10
114.7434644044
 20
126.3614372933
 30
0.0
  0
VERTEX
  5
111
330
63
100
AcDbEntity
  8
0
  6
SLD-PLNÁ
 62
     7
100
AcDbVertex
100
AcDb2dVertex
 10
114.7422196378
 20
127.1112030758
 30
0.0
  0
SEQEND
  5
112
330
63
100
AcDbEntity
  8
0
  6
SLD-PLNÁ
 62
     7
  0
LINE
  5
64
330
1F
100
AcDbEntity
  8
0
  6
SLD-PLNÁ
 62
     7
100
AcDbLine
 10
118.942999588
 20
120.8378792799
 30
0.0
 11
147.5097570127
 21
146.3788710455
 31
0.0
  0
LINE
  5
65
330
1F
100
AcDbEntity
  8
0
  6
SLD-PLNÁ
 62
     7
100
AcDbLine
 10
117.4436522994
 20
120.8279454066
 30
0.0
 11
146.0104097241
 21
146.3689371722
 31
0.0
  0
LINE
  5
66
330
1F
100
AcDbEntity
  8
0
  6
SLD-PLNÁ
 62
     7
100
AcDbLine
 10
146.0104097241
 20
146.3689371722
 30
0.0
 11
147.5097570127
 21
146.3788710455
 31
0.0
  0
LINE
  5
67
330
1F
100
AcDbEntity
  8
0
  6
SLD-PLNÁ
 62
     7
100
AcDbLine
 10
147.6347390351
 20
129.3847888595
 30
0.0
 11
147.5097570127
 21
146.3788710455
 31
0.0
  0
ARC
  5
68
330
1F
100
AcDbEntity
  8
0
  6
SLD-PLNÁ
 62
     7
100
AcDbCircle
 10
144.6381009069
 20
129.3623626183
 30
0.0
 40
2.996722043818153
100
AcDbArc
 50
311.8025831043
 51
0.4287821657
  0
LINE
  5
69
330
1F
100
AcDbEntity
  8
0
  6
SLD-PLNÁ
 62
     7
100
AcDbLine
 10
112.9456106661
 20
120.7981437883
 30
0.0
 11
113.0669167467
 21
104.3038875456
 31
0.0
  0
LINE
  5
6A
330
1F
100
AcDbEntity
  8
0
  6
SLD-PLNÁ
 62
     7
100
AcDbLine
 10
111.4462631448
 20
120.7882099135
 30
0.0
 11
112.9456106661
 21
120.7981437883
 31
0.0
  0
LINE
  5
6B
330
1F
100
AcDbEntity
  8
0
  6
SLD-PLNÁ
 62
     7
100
AcDbLine
 10
111.4462631448
 20
120.7882099135
 30
0.0
 11
111.5675692253
 21
104.2939536708
 31
0.0
  0
LINE
  5
6C
330
1F
100
AcDbEntity
  8
0
  6
SLD-PLNÁ
 62
     7
100
AcDbLine
 10
111.4462631448
 20
120.7882099135
 30
0.0
 11
112.9358887517
 21
122.1200556948
 31
0.0
  0
ARC
  5
6D
330
1F
100
AcDbEntity
  8
0
  6
SLD-PLNÁ
 62
     7
100
AcDbCircle
 10
109.570066206
 20
104.2789215667
 30
0.0
 40
1.997559580160636
100
AcDbArc
 50
270.3750818647
 51
0.4311682401
  0
ARC
  5
6E
330
1F
100
AcDbEntity
  8
0
  6
SLD-PLNÁ
 62
     7
100
AcDbCircle
 10
109.5712860102
 20
104.2775818243
 30
0.0
 40
3.49572971449013
100
AcDbArc
 50
270.3750892345
 51
0.4311606318
  0
LINE
  5
6F
330
1F
100
AcDbEntity
  8
0
  6
SLD-PLNÁ
 62
     7
100
AcDbLine
 10
109.5831429636
 20
102.2814047897
 30
0.0
 11
93.0903239521
 21
102.1721321913
 31
0.0
  0
LINE
  5
70
330
1F
100
AcDbEntity
  8
0
  6
SLD-PLNÁ
 62
     7
100
AcDbLine
 10
93.0903239521
 20
102.1721321913
 30
0.0
 11
111.4623699827
 21
118.5982273693
 31
0.0
  0
LINE
  5
71
330
1F
100
AcDbEntity
  8
0
  6
SLD-PLNÁ
 62
     7
100
AcDbLine
 10
93.1013517771
 20
100.6726544198
 30
0.0
 11
93.0903239521
 21
102.1721321913
 31
0.0
  0
LINE
  5
72
330
1F
100
AcDbEntity
  8
0
  6
SLD-PLNÁ
 62
     7
100
AcDbLine
 10
109.5941707886
 20
100.7819270182
 30
0.0
 11
93.1013517771
 21
100.6726544198
 31
0.0
  0
LINE
  5
73
330
1F
100
AcDbEntity
  8
0
  6
SLD-PLNÁ
 62
     7
100
AcDbLine
 10
114.9665044989
 20
253.7717111505
 30
0.0
 11
143.5332619236
 21
279.312702916
 31
0.0
  0
LINE
  5
74
330
1F
100
AcDbEntity
  8
0
  6
SLD-PLNÁ
 62
     7
100
AcDbLine
 10
113.4892129047
 20
250.7628156828
 30
0.0
 11
115.1789326452
 21
252.2735618041
 31
0.0
  0
LINE
  5
75
330
1F
100
AcDbEntity
  8
0
  6
SLD-PLNÁ
 62
     7
100
AcDbLine
 10
114.5699397444
 20
103.8139954741
 30
0.0
 11
117.5491909583
 21
106.4776870367
 31
0.0
  0
LINE
  5
76
330
1F
100
AcDbEntity
  8
0
  6
SLD-PLNÁ
 62
     7
100
AcDbLine
 10
119.0679816104
 20
103.843797094
 30
0.0
 11
147.6347390351
 21
129.3847888595
 31
0.0
  0
LINE
  5
77
330
1F
100
AcDbEntity
  8
0
  6
SLD-PLNÁ
 62
     7
100
AcDbLine
 10
111.5675692253
 20
104.2939536708
 30
0.0
 11
113.0669167467
 21
104.3038875456
 31
0.0
  0
LINE
  5
78
330
1F
100
AcDbEntity
  8
0
  6
SLD-PLNÁ
 62
     7
100
AcDbLine
 10
109.5941707886
 20
100.7819270182
 30
0.0
 11
109.5831429636
 21
102.2814047897
 31
0.0
  0
LINE
  5
79
330
1F
100
AcDbEntity
  8
0
  6
SLD-PLNÁ
 62
     7
100
AcDbLine
 10
109.5831429636
 20
102.2814047897
 30
0.0
 11
111.553638116
 21
104.0431868398
 31
0.0
  0
DIMENSION
  5
7A
330
1F
100
AcDbEntity
  8
0
  6
SLD-PLNÁ
 62
     9
100
AcDbDimension
  2
*D1
 10
142.8556910166
 20
181.1559859966
 30
0.0
 11
129.3606941036
 21
169.0903672108
 31
0.0
 70
   160
  3
SLDDIMSTYLE0
100
AcDbAlignedDimension
 13
114.6698962556
 23
103.8146577325
 33
0.0
 14
143.2366536803
 24
129.3556494981
 34
0.0
 50
41.7992897427
100
AcDbRotatedDimension
  0
ARC
  5
84
330
1F
100
AcDbEntity
  8
0
  6
SLD-PLNÁ
 62
     7
100
AcDbCircle
 10
53.1935721812
 20
119.5312223393
 30
0.0
 40
3.0
100
AcDbArc
 50
180.0
 51
0.0
  0
LINE
  5
85
330
1F
100
AcDbEntity
  8
0
  6
SLD-PLNÁ
 62
     7
100
AcDbLine
 10
50.193572375
 20
266.5312222201
 30
0.0
 11
50.193572375
 21
119.5312223393
 31
0.0
  0
ARC
  5
86
330
1F
100
AcDbEntity
  8
0
  6
SLD-PLNÁ
 62
     7
100
AcDbCircle
 10
53.1935721812
 20
266.5312223393
 30
0.0
 40
3.0
100
AcDbArc
 50
90.0
 51
180.0
  0
LINE
  5
87
330
1F
100
AcDbEntity
  8
0
  6
SLD-PLNÁ
 62
     7
100
AcDbLine
 10
103.1935736118
 20
269.5312282998
 30
0.0
 11
53.1935721682
 21
269.5312282998
 31
0.0
  0
LINE
  5
88
330
1F
100
AcDbEntity
  8
0
  6
SLD-PLNÁ
 62
     7
100
AcDbLine
 10
103.1935736118
 20
269.5312282998
 30
0.0
 11
103.1935736118
 21
268.0312178094
 31
0.0
  0
LINE
  5
89
330
1F
100
AcDbEntity
  8
0
  6
SLD-PLNÁ
 62
     7
100
AcDbLine
 10
103.1935736118
 20
268.0312178094
 30
0.0
 11
53.1935721682
 21
268.0312178094
 31
0.0
  0
ARC
  5
8A
330
1F
100
AcDbEntity
  8
0
  6
SLD-PLNÁ
 62
     7
100
AcDbCircle
 10
53.1935721812
 20
266.5312223393
 30
0.0
 40
1.5
100
AcDbArc
 50
90.0
 51
180.0
  0
LINE
  5
8B
330
1F
100
AcDbEntity
  8
0
  6
SLD-PLNÁ
 62
     7
100
AcDbLine
 10
51.6935721552
 20
266.5312222201
 30
0.0
 11
51.6935721552
 21
119.5312223393
 31
0.0
  0
ARC
  5
8C
330
1F
100
AcDbEntity
  8
0
  6
SLD-PLNÁ
 62
     7
100
AcDbCircle
 10
53.1935721812
 20
119.5312223393
 30
0.0
 40
1.5
100
AcDbArc
 50
180.0
 51
0.0
  0
LINE
  5
8D
330
1F
100
AcDbEntity
  8
0
  6
SLD-PLNÁ
 62
     7
100
AcDbLine
 10
54.6935721812
 20
119.5312223393
 30
0.0
 11
54.6935721812
 21
136.5312232632
 31
0.0
  0
LINE
  5
8E
330
1F
100
AcDbEntity
  8
0
  6
SLD-PLNÁ
 62
     7
100
AcDbLine
 10
54.6935721812
 20
136.5312232632
 30
0.0
 11
56.1935721943
 21
136.5312232632
 31
0.0
  0
LINE
  5
8F
330
1F
100
AcDbEntity
  8
0
  6
SLD-PLNÁ
 62
     7
100
AcDbLine
 10
56.1935721943
 20
119.5312223393
 30
0.0
 11
56.1935721943
 21
136.5312232632
 31
0.0
  0
LINE
  5
90
330
1F
100
AcDbEntity
  8
0
  6
SLD-PLNÁ
 62
     7
100
AcDbLine
 10
48.6935721291
 20
136.5312232632
 30
0.0
 11
50.193572375
 21
136.5312232632
 31
0.0
  0
LINE
  5
91
330
1F
100
AcDbEntity
  8
0
  6
SLD-PLNÁ
 62
     7
100
AcDbLine
 10
50.193572375
 20
136.5312232632
 30
0.0
 11
50.193572375
 21
120.0312223631
 31
0.0
  0
LINE
  5
92
330
1F
100
AcDbEntity
  8
0
  6
SLD-PLNÁ
 62
     7
100
AcDbLine
 10
48.6935721291
 20
136.5312232632
 30
0.0
 11
48.6935721291
 21
120.0312223631
 31
0.0
  0
ARC
  5
93
330
1F
100
AcDbEntity
  8
0
  6
SLD-PLNÁ
 62
     7
100
AcDbCircle
 10
46.6935721812
 20
120.0312223393
 30
0.0
 40
3.500000000000007
100
AcDbArc
 50
270.0
 51
0.0
  0
ARC
  5
94
330
1F
100
AcDbEntity
  8
0
  6
SLD-PLNÁ
 62
     7
100
AcDbCircle
 10
46.6935721812
 20
120.0312223393
 30
0.0
 40
2.0
100
AcDbArc
 50
270.0
 51
0.0
  0
LINE
  5
95
330
1F
100
AcDbEntity
  8
0
  6
SLD-PLNÁ
 62
     7
100
AcDbLine
 10
46.6935718013
 20
116.5312223132
 30
0.0
 11
30.193572822
 21
116.5312223132
 31
0.0
  0
LINE
  5
96
330
1F
100
AcDbEntity
  8
0
  6
SLD-PLNÁ
 62
     7
100
AcDbLine
 10
30.193572822
 20
116.5312223132
 30
0.0
 11
30.193572822
 21
118.0312223263
 31
0.0
  0
LINE
  5
97
330
1F
100
AcDbEntity
  8
0
  6
SLD-PLNÁ
 62
     7
100
AcDbLine
 10
46.6935718013
 20
118.0312223263
 30
0.0
 11
30.193572822
 21
118.0312223263
 31
0.0
  0
LINE
  5
98
330
1F
100
AcDbEntity
  8
0
  6
SLD-PLNÁ
 62
     7
100
AcDbLine
 10
48.6935721291
 20
120.0312223631
 30
0.0
 11
50.193572375
 21
120.0312223631
 31
0.0
  0
LINE
  5
99
330
1F
100
AcDbEntity
  8
0
  6
SLD-PLNÁ
 62
     7
100
AcDbLine
 10
46.6935718013
 20
116.5312223132
 30
0.0
 11
46.6935718013
 21
118.0312223263
 31
0.0
  0
DIMENSION
  5
9A
330
1F
100
AcDbEntity
  8
0
  6
SLD-PLNÁ
 62
     9
100
AcDbDimension
  2
*D2
 10
14.1935721812
 20
116.5312223393
 30
0.0
 11
14.1935721812
 21
189.0110468673
 31
0.0
 70
   160
  3
SLDDIMSTYLE0
100
AcDbAlignedDimension
 13
53.1935721812
 23
269.5312223393
 33
0.0
 14
53.1935721812
 24
116.5312223393
 34
0.0
 50
90.0
100
AcDbRotatedDimension
  0
DIMENSION
  5
A4
330
1F
100
AcDbEntity
  8
0
  6
SLD-PLNÁ
 62
     9
100
AcDbDimension
  2
*D3
 10
50.1935721812
 20
249.3698213818
 30
0.0
 11
77.9353211675
 21
249.3698213818
 31
0.0
 70
   160
  3
SLDDIMSTYLE0
100
AcDbAlignedDimension
 13
103.1935721812
 23
268.0312223393
 33
0.0
 14
50.1935721812
 24
266.5312223393
 34
0.0
100
AcDbRotatedDimension
  0
DIMENSION
  5
AD
330
1F
100
AcDbEntity
  8
0
  6
SLD-PLNÁ
 62
     9
100
AcDbDimension
  2
*D4
 10
50.1935721812
 20
146.2980862823
 30
0.0
 11
40.0091301529
 21
146.2980862823
 31
0.0
 70
   160
  3
SLDDIMSTYLE1
100
AcDbAlignedDimension
 13
30.1935721812
 23
118.0312223393
 33
0.0
 14
50.1935721812
 24
119.5312223393
 34
0.0
100
AcDbRotatedDimension
  0
ENDSEC
  0
SECTION
  2
OBJECTS
  0
DICTIONARY
  5
C
330
0
100
AcDbDictionary
  3
ACAD_GROUP
350
D
  3
ACAD_MLINESTYLE
350
17
1001
ACAD
1000
TREAT_AS_HARD
1070
     0
  0
DICTIONARY
  5
D
102
{ACAD_REACTORS
330
C
102
}
330
C
100
AcDbDictionary
1001
ACAD
1000
TREAT_AS_HARD
1070
     0
  0
DICTIONARY
  5
17
102
{ACAD_REACTORS
330
C
102
}
330
C
100
AcDbDictionary
  3
STANDARD
350
18
1001
ACAD
1000
TREAT_AS_HARD
1070
     0
  0
MLINESTYLE
  5
18
102
{ACAD_REACTORS
330
17
102
}
330
17
100
AcDbMlineStyle
  2
Standard
 70
     0
  3

 62
   256
 51
90.0
 52
90.0
 71
     2
 49
0.5
 62
   256
  6
BYLAYER
 49
-0.5
 62
   256
  6
BYLAYER
  0
ENDSEC
  0
EOF
